My Daddy Is In Heaven 2017 Movies 720p HDRip x264 5 1 with Sample ☻rDX☻ torrent download

seeders: 204
leechers: 173
updated:
Added ago by nehalpuja ***** in Movies
Torrent Downloaded 10 times.
Info Hash: 8F889F95DC0C6E7F7F965088EB8355884586A0F2


Torrent Files

My Daddy Is In Heaven 2017 Movies 720p HDRip x264 5 1 with Sample ☻rDX☻ (Size: 900.7 MB)
  My Daddy Is In Heaven 2017 Movies 720p HDRip x264 5 1 with Sample ☻rDX☻ 900.7 MB

Torrent Description



My Daddy Is In Heaven 2017 Movies 720p HDRip x264 5.1 with Sample ☻rDX☻
===============================================================================================

SCREEN SHOTS:



or

http://iphonehosting.eu/2018/4/business/1.html

File size : 892 MiB
Duration : 1 h 35 min
Overall bit rate : 1 309 kb/s
Movie name : My Daddy Is In Heaven 2017 Movies 720p HDRip x264 5.1 ☻rDX☻

Video
ID : 2
Format : AVC
Format/Info : Advanced Video Codec
Format profile : [email protected]
Format settings, CABAC : Yes
Format settings, ReFrames : 4 frames
Codec ID : V_MPEG4/ISO/AVC
Duration : 1 h 35 min
Bit rate : 924 kb/s
Width : 1 280 pixels
Height : 720 pixels
Display aspect ratio : 16:9
Frame rate mode : Constant
Frame rate : 23.976 (24000/1001) FPS
Color space : YUV
Chroma subsampling : 4:2:0
Bit depth : 8 bits
Scan type : Progressive
Bits/(Pixel*Frame) : 0.042
Stream size : 612 MiB (69%)
Title : ☻rDX☻
Writing library : x264

Audio
ID : 1
Format : AC-3
Format/Info : Audio Coding 3
Mode extension : CM (complete main)
Format settings, Endianness : Big
Codec ID : A_AC3
Duration : 1 h 35 min
Bit rate mode : Constant
Bit rate : 384 kb/s
Channel(s) : 6 channels
Channel positions : Front: L C R, Side: L R, LFE
Sampling rate : 48.0 kHz
Frame rate : 31.250 FPS (1536 spf)
Bit depth : 16 bits
Compression mode : Lossy
Delay relative to video : -42 ms
Stream size : 262 MiB (29%)
Title : ☻rDX☻
Default : Yes
Forced : No



IMDB : http://www.imdb.com/title/tt6460276



Related Torrents

torrent name size age seed leech
3.9 GB 7 seconds 375 267
3.0 GB 7 seconds 10 92
391.6 KB 7 seconds 307 10
4.1 GB 3 minutes 703 278
1.2 GB 3 minutes 86 365

Sharing Widget


Download torrent
900.7 MB
seeders:1214
leechers:386
My Daddy Is In Heaven 2017 Movies 720p HDRip x264 5 1 with Sample ☻rDX☻



To share this torrent use the code below and insert it into comments, status messages, forum posts or your signature.

Torrent: My Daddy Is In Heaven 2017 Movies 720p HDRip x264 5 1 with Sample ☻rDX☻

Comments

Latest Searches