Winchester (2018) HDRip 720p x264 AAC 800MB ESub [MovCR] torrent download

seeders: 558
leechers: 72
updated:
Added ago by ictv ***** in Movies
Torrent Downloaded 10 times.
Info Hash: 460C96A2AF948C8C1E4F157B54266B5B46DAAB9E


Torrent Files

Winchester (2018) HDRip 720p x264 AAC 800MB - ESub [MovCR] (Size: 802.4 MB)
  Winchester (2018) HDRip 720p x264 AAC 800MB - ESub [MovCR] 802.4 MB

Torrent Description



Visit www.movcr.com

Winchester (2018) HDRip 720p x264 AAC 800MB - ESub [MovCR]

http://www.imdb.com/title/tt1072748/



General
Complete name : [www.MovCR.com]Winchester (2018) HDRip 720p x264 AAC 800MB - ESub [MovCR]\www.MovCR.com - Winchester (2018) HDRip 720p x264 AAC 800MB - ESub [MovCR].mkv
Format : Matroska
Format version : Version 4 / Version 2
File size : 802 MiB
Duration : 1 h 39 min
Overall bit rate : 1 127 kb/s
Movie name : www.MovCR.com
Encoded date : UTC 2018-04-17 09:31:07
Writing application : mkvmerge v9.5.0 ('Quiet Fire') 64bit
Writing library : libebml v1.3.4 + libmatroska v1.4.5

Video
ID : 1
Format : AVC
Format/Info : Advanced Video Codec
Format profile : [email protected]
Format settings : CABAC / 8 Ref Frames
Format settings, CABAC : Yes
Format settings, RefFrames : 8 frames
Codec ID : V_MPEG4/ISO/AVC
Duration : 1 h 39 min
Bit rate : 1 062 kb/s
Width : 1 280 pixels
Height : 532 pixels
Display aspect ratio : 2.40:1
Original display aspect ratio : 2.40:1
Frame rate mode : Constant
Frame rate : 23.976 (24000/1001) FPS
Color space : YUV
Chroma subsampling : 4:2:0
Bit depth : 8 bits
Scan type : Progressive
Bits/(Pixel*Frame) : 0.065
Stream size : 756 MiB (94%)
Title : www.MovCR.com
Writing library : x264 core 148 r2708 86b7198
Encoding settings : cabac=1 / ref=8 / deblock=1:0:0 / analyse=0x3:0x133 / me=umh / subme=9 / psy=1 / psy_rd=1.00:0.00 / mixed_ref=1 / me_range=16 / chroma_me=1 / trellis=2 / 8x8dct=1 / cqm=0 / deadzone=21,11 / fast_pskip=1 / chroma_qp_offset=-2 / threads=17 / lookahead_threads=1 / sliced_threads=0 / nr=0 / decimate=1 / interlaced=0 / bluray_compat=0 / constrained_intra=0 / bframes=3 / b_pyramid=2 / b_adapt=2 / b_bias=0 / direct=3 / weightb=1 / open_gop=0 / weightp=2 / keyint=240 / keyint_min=24 / scenecut=40 / intra_refresh=0 / rc_lookahead=60 / rc=2pass / mbtree=1 / bitrate=1062 / ratetol=1.0 / qcomp=0.60 / qpmin=0 / qpmax=69 / qpstep=4 / cplxblur=20.0 / qblur=0.5 / vbv_maxrate=62500 / vbv_bufsize=78125 / nal_hrd=none / filler=0 / ip_ratio=1.40 / aq=1:1.00
Language : English
Default : Yes
Forced : No
Color range : Limited
Color primaries : BT.709
Transfer characteristics : BT.709
Matrix coefficients : BT.709

Audio
ID : 2
Format : AAC
Format/Info : Advanced Audio Codec
Format profile : HE-AAC / LC
Format settings : Explicit
Codec ID : A_AAC-2
Duration : 1 h 39 min
Bit rate : 64.0 kb/s
Channel(s) : 2 channels
Channel positions : Front: L R
Sampling rate : 48.0 kHz / 24.0 kHz
Frame rate : 23.438 FPS (1024 SPF)
Compression mode : Lossy
Delay relative to video : 31 ms
Stream size : 45.5 MiB (6%)
Title : www.MovCR.com
Language : English
Default : Yes
Forced : No

Text
ID : 3
Format : UTF-8
Codec ID : S_TEXT/UTF8
Codec ID/Info : UTF-8 Plain Text
Duration : 1 h 26 min
Bit rate : 47 b/s
Count of elements : 1048
Stream size : 30.3 KiB (0%)
Title : www.MovCR.com
Language : English
Default : Yes
Forced : No

Menu
00:00:00.000 : :1
00:01:14.992 : :2
00:10:02.018 : :3
00:20:34.984 : :4
00:30:57.022 : :5
00:41:11.010 : :6
00:51:04.019 : :7
01:01:50.999 : :8
01:11:17.982 : :9
01:18:37.963 : :10
01:30:53.990 : :11










Related Torrents

torrent name size age seed leech
311.7 MB 1 minute 31 240
747.2 MB 1 minute 344 486
2.2 GB 1 minute 729 39
321.9 MB 1 minute 3 103
3.0 MB 1 minute 699 157

Sharing Widget


Download torrent
802.4 MB
seeders:1214
leechers:386
Winchester (2018) HDRip 720p x264 AAC 800MB - ESub [MovCR]



To share this torrent use the code below and insert it into comments, status messages, forum posts or your signature.

Torrent: Winchester (2018) HDRip 720p x264 AAC 800MB - ESub [MovCR]

Comments

Latest Searches